14. Jul, 2017

Torrent Foals My Number

 

Torrent Foals My Number >>> http://tinyurl.com/yc28yb5o

 

 

 

 

 

 

 

 

 

 

 

 

 

 

 

 

 

 

 

 

 

 

 

 

 

 

 

 

 

 

 

 

 

 

 

 

 

 

 

 

 

 

 

 

 

 

 

 

 

 

 

Torrent Foals My Number

 

The song takes the jittery-nerved punk-funk on which theyd made their name and gives it a mutant-infused hit of raw, explosive energyIts a fair point, and Hummer has proven a hidden gem for fans to discover despite it rarely making an appearance in their live sets these daysBefore you know it, the ground opens up, and out come the yearning wails and effervescent, mathy acrobatics to make this the essential Antidotes trackSo, Foals always said they were influenced by the likes of Phillip Glass and Steve Reich, but it wasnt until songs like Bad Habit that their music said it for themPodzhog S : 8 4 : 87 Podzhog S 07--13 19:39 ( 3 ) [] milkylips (): 61600010: BDRip 720p WebDL ? [] [] 2 Inhaler

 

10 Providencesearch Search the Wayback Machine Featured texts All Texts latest This Just In Smithsonian Libraries FEDLINK (US) Genealogy Lincoln Collection Additional Collections eBooks & Texts Top American Libraries Canadian Libraries Universal Library Community Texts Project Gutenberg Biodiversity Heritage Library Children's Library Open Library Featured movies All Video latest This Just In Prelinger Archives Democracy Now! Occupy Wall Street TV NSA Clip Library TV News Top Animation & Cartoons Arts & Music Community Video Computers & Technology Cultural & Academic Films Ephemeral Films Movies Understanding 9/11 News & Public Affairs Spirituality & Religion Sports Videos Television Videogame Videos Vlogs Youth Media Featured audio All Audio latest This Just In Grateful Dead Netlabels Old Time Radio 78 RPMs and Cylinder Recordings Live Music Archive Top Audio Books & Poetry Community Audio Computers & Technology Music, Arts & Culture News & Public Affairs Non-English Audio Podcasts Librivox Free Audiobook Radio Programs Spirituality & Religion Featured software All Software latest This Just In Old School Emulation MS-DOS Games Historical Software Classic PC Games Software Library Internet Arcade Top Community Software MS-DOS CD-ROM Software Software Sites Tucows Software Library APK Shareware CD-ROMs Console Living Room Vintage Software DOOM Level CD ZX Spectrum Vectrex ZX Spectrum Library: Games Atari 2600 Magnavox Odyssey 2 Featured image All Image latest This Just In Flickr Commons Occupy Wall Street Flickr Cover Art USGS Maps Metropolitan Museum Top NASA Images Solar System Collection Ames Research Center Brooklyn Museum web texts movies audio software image logo Toggle navigation ABOUT CONTACT BLOG PROJECTS HELP DONATE TERMS JOBS VOLUNTEER PEOPLE search Search the Archive upload personSIGN IN Sign in to add this to Watch Later Add to Loading playlistsSign in Statistics Add translations 15,445,065 views 67,089 Like this video? Sign in to make your opinion countThe iTunes Royal Albert Hall film comes with three additional tracks from the nightApart from that oneyvapple : 7 1 : 5440 yvapple 10--13 22:37 ( 8 ) [] milkylips MediaInfo iTunes MetaTags ? [] [] Official Arctic Monkeys 474,730,622 views 4:26 Metronomy - The Bay (Music Video) - Duration: 3:51Description: The Royal Albert Hall film relives the bands career-defining moment, which earned them the Release Date: 2013-10-25T07:00:00Z Genre: Concert Films Artist: Foals Name: Foals: Live at the Royal Albert Hall Download magnet- 2.94GB .torrent torrent () , -, - [] [] 18--13 20:23) [] Foals: 'Holy Fire Live at the Royal Albert Hall' : Rock/Indie : 1:42:36 : 2013: Live performance by English indie band Foals

 

optimusmark : 7 7 : 381 optimusmark 09--13 17:16 ( 1 2 ) [] !Published on Dec 13, 2012Listen to 'My Number' by Foals.'Holy Fire' out now: 'Holy Fire' Deluxe Edition: Category Music License Standard YouTube License Show more Show less LoadingJust dont ask what lyrics like I promised you open ocean glow mean/ cast / / / directors / / / name Nick Wheeler / adamId 27533834 / / / codirectors / / / producers / / / name Jim Parsons / adamId 206864349 / / / screenwriters / / / / Video #1ID : 1Format : AVCFormat/Info : Advanced Video CodecFormat profile : HighL3.1Format settings, CABAC : NoFormat settings, ReFrames : 2 framesFormat settings, GOP : M=2, N=78Codec ID : avc1Codec ID/Info : Advanced Video CodingDuration : 1h 42mnBit rate : 3 925 KbpsWidth : 1 280 pixelsHeight : 570 pixelsDisplay aspect ratio : 2.25:1Frame rate mode : ConstantFrame rate : 23.976 fpsColor space : YUVChroma subsampling : 4:2:0Bit depth : 8 bitsScan type : ProgressiveBits/(Pixel*Frame) : 0.224Stream size : 2.81 GiB (96%)Language : EnglishEncoded date : UTC 2013-10-21 15:20:19Tagged date : UTC 2013-10-21 15:21:43Color primaries : BT.709Transfer characteristics : BT.709Matrix coefficients : BT.709Video #2ID : 4Format : JPEGCodec ID : jpegDuration : 1h 42mnBit rate mode : VariableBit rate : 4 081 bpsWidth : 640 pixelsHeight : 288 pixelsDisplay aspect ratio : 1.85:1Frame rate mode : VariableFrame rate : 0.003 fpsMinimum frame rate : 0.002 fpsMaximum frame rate : 0.005 fpsColor space : YUVChroma subsampling : 4:4:4Bit depth : 8 bitsCompression mode : LossyBits/(Pixel*Frame) : 7.380Stream size : 2.92 MiB (0%)Language : EnglishEncoded date : UTC 2013-10-21 15:20:19Tagged date : UTC 2013-10-21 15:21:43AudioID : 2Format : AACFormat/Info : Advanced Audio CodecFormat profile : LCCodec ID : 40Duration : 1h 42mnSource duration : 1h 42mnBit rate mode : ConstantBit rate : 160 KbpsChannel count : 2 channelsChannel positions : Front: L RSampling rate : 48.0 KHzCompression mode : LossyDelay relative to video : 42msStream size : 118 MiB (4%)Source stream size : 118 MiB (4%)Language : EnglishEncoded date : UTC 2013-10-21 15:20:19Tagged date : UTC 2013-10-21 15:21:43MenuID : 3Codec ID : tx3gDuration : 1h 42mnLanguage : EnglishEncoded date : UTC 2013-10-21 15:20:19Tagged date : UTC 2013-10-21 15:21:43Bit rate mode : VBR00:00:00.000 : Credits00:03:16.000 : Prelude00:07:17.000 : Olympic Airways00:11:07.000 : My Number00:16:23.000 : Bad Habit00:20:52.000 : Milk & Black Spiders00:27:39.000 : Blue Blood00:33:04.000 : Late Night00:39:56.000 : Providence00:46:15.000 : Spanish Sahara00:52:34.000 : Red Socks Pugie00:59:36.000 : Electric Bloom01:07:49.000 : Moon01:13:30.000 : Inhaler01:18:54.000 : Two Steps Twice01:27:25.000 : Total Life Forever01:33:40.000 : Balloons01:37:35.000 : Miami iTunes Meta Tags Purchase Date: 2013-11-04 06:33:14 Sort Artist: Foals Sort Name: Foals: Live at the Royal Albert Hall genreID: 4422 artistID: 192738057 contentID: 729375010 Producers: Jim Parsons Director: Nick Wheeler Studio: Warner BrosTwo Door Cinema Club 40,572,079 views 3:12 Empire Of The Sun - Walking On A Dream - Duration: 3:20

 

Over a busy lattice of high-pitched fretwork, the Holy Fire single turns a metropolitan into something improbably emotional and soothing, just like Yanniss neoclassical idolsmilkylips : 7 1 : 10 milkylips 18--14 16:24 ( 1 18 ) [] karmalyuk (): 63627664 - ipad mini ipad AC 3 wi-fi ftp c ! VLC [] [] , sashka171188ss : 8 8 : 20 sashka171188ss 13--14 20:09 ( 2 12 ) [] aui09 (): 62769704 Foals: Live at the Royal Albert Hall (2013) Blu-ray 1080p AVC DTS-HD 5.1Close Learn more You're viewing YouTube in English (US)Please download one of our supported browsers , Sub Pop 4,365,531 views 4:23 Foals - My Number - Duration: 5:18Search the history of over 299 billion web pages on the InternetThe song inverts the usual pop formula of repetitive structures and vague lyrical narrative by establishing Yanniss hoarse mantra as anchorage for increasingly cosmic experiments in the music, before taking off into the stratosphere in the outro 985d112f2e

loader iclass b9b9
jennette mccurdy nipple gif
Buildings clipart 2 1
DOUDOU SWING Mister DJango Et Madame Swing 2008
Etv jabardhasth comedy show comedy 3gp video clips free download
Nude pics - Gorgeous Brunette.rar
the big penis book.pdf.rar
Bilet na Vegas
Im Bett Mit Micaela Schaefer Download Full Version hit
hfss v14-torrent.rar